Eklenme : 29 Aralık 2013                  Yorumlanma : 0                 

Riddick Günlükleri 3 indir – Riddick 2013 Bluray Disc 25 1080p FELIX

uhd0 Riddick Günlükleri 3 indir Tek Link indir BD

http://www.imdb.com/title/tt1411250/

2000 yapımı popüler bilim kurgu filmi Pitch Black (Derin Karanlık) ve 2004 yapımı The Chronicles of Riddick (Riddick Günlükleri) ile başlayan ve sinema dünyasında çığır açan destanın son bölümünün senaristi ve yönetmeni yine David Twohy. Filmin başrol oyuncusu Vin Diesel ise yine bilinen galaksideki her ödül avcısı tarafından aranan tehlikeli ve kaçak bir mahkum olan anti kahraman Riddick rolünde.

Meşhur Riddick güneşten kavrulmuş ve üzerinde yaşam olmadığı düşünülen bir gezegende ölüme terk edilmiştir. Ancak Riddick kısa bir süre sonra kendisini uzaylı yırtıcılarla savaşırken bulur. Riddick’in kurtulmak için tek şansı acil durum işaretini aktive etmek ve kendisini yakalamak için gezegene hemen gelecek paralı askerleri alarma geçirmektir.

Gezegene ulaşan ilk gemi diğerlerinden daha ölümcül ve daha sert olan paralı askerler taşırken, gelen ikinci geminin kaptanı ise Riddick’i daha kişisel bir nedenle arayan biridir. Kimsenin kurtulamayacağı fırtına yaklaşırken, kaptanın avcıları Riddick’in kellesini getirmeden gezegenden ayrılamayacaklardır.

FILM ORJINAL DILDEDIR

Yönetmen
David Twohy

Senaryo
David Twohy
Jim Wheat
Ken Wheat

Görüntü Yönetmeni
David Eggby

Müzik
Graeme Revell

Yapım :
2013

Ülke :
Amerika, İngiltere

Tür :
Aksiyon, Bilim-Kurgu, Gerilim

Süre :
119 dakika

Oyuncular:

Vin Diesel (Riddick)
Jordi Mollà (Santana)
Matthew Nable (Boss Johns)
Katee Sackhoff (Dahl)
Dave Batista (Diaz)
Bokeem Woodbine (Moss)
Raoul Trujillo (Lockspur)
Conrad Pla (Vargas)
Danny Blanco ( Falco)
Noah Danby ( Nunez)
Nolan Gerard Funk (Luna)
Karl Urban (Vaako)
Andreas Apergis (Krone)
Keri Hilson ( Santana’s Prisoner) (as Keri Lynn Hilson)

General
ID : 1 (0×1)
Complete name : C:FELIXRiddick Günlükleri 2 (Riddick) 2013 1080p FULL Blu-ray BD 25 by FELIXBDMVSTREAM0000.m2ts
Format : BDAV
Format/Info : Blu-ray Video
File size : 19.3 GiB
Duration : 1h 58mn
Overall bit rate mode : Variable
Overall bit rate : 23.2 Mbps
Maximum Overall bit rate : 35.5 Mbps

Video
ID : 4113 (0×1011)
Menu ID : 1 (0×1)
Format : AVC
Format/Info : Advanced Video Codec
Format profile : High@L4.1
Format settings, CABAC : Yes
Format settings, ReFrames : 2 frames
Codec ID : 27
Duration : 1h 58mn
Bit rate mode : Variable
Bit rate : 19.2 Mbps
Maximum bit rate : 35.0 Mbps
Width : 1 920 pixels
Height : 1 080 pixels
Display aspect ratio : 16:9
Frame rate : 23.976 fps
Color space : YUV
Chroma subsampling : 4:2:0
Bit depth : 8 bits
Scan type : Progressive
Bits/(Pixel*Frame) : 0.386
Stream size : 16.0 GiB (83%)
Writing library : x264 core 140 r2377 1ca7bb9
Encoding settings : cabac=1 / ref=1 / deblock=1:0:0 / analyse=0×3:0×3 / me=dia / subme=1 / psy=1 / psy_rd=1.00:0.00 / mixed_ref=0 / me_range=16 / chroma_me=1 / trellis=0 / 8x8dct=1 / cqm=0 / deadzone=21,11 / fast_pskip=1 / chroma_qp_offset=0 / threads=9 / lookahead_threads=1 / sliced_threads=0 / slices=4 / nr=0 / decimate=1 / interlaced=0 / bluray_compat=1 / constrained_intra=0 / bframes=3 / b_pyramid=0 / b_adapt=1 / b_bias=0 / direct=1 / weightb=1 / open_gop=0 / weightp=1 / keyint=24 / keyint_min=1 / scenecut=40 / intra_refresh=0 / rc_lookahead=0 / rc=abr / mbtree=0 / bitrate=19182 / ratetol=1.0 / qcomp=0.60 / qpmin=0 / qpmax=69 / qpstep=4 / vbv_maxrate=35000 / vbv_bufsize=30000 / nal_hrd=vbr / filler=0 / ip_ratio=1.10 / pb_ratio=1.10 / aq=1:1.00

Audio #1
ID : 4352 (0×1100)
Menu ID : 1 (0×1)
Format : DTS
Format/Info : Digital Theater Systems
Codec ID : 130
Duration : 1h 58mn
Bit rate mode : Constant
Bit rate : 1 510 Kbps
Channel(s) : 6 channels
Channel positions : Front: L C R, Side: L R, LFE
Sampling rate : 48.0 KHz
Bit depth : 24 bits
Compression mode : Lossy
Stream size : 1.25 GiB (6%)
Language : English

Audio #2
ID : 4353 (0×1101)
Menu ID : 1 (0×1)
Format : DTS
Format/Info : Digital Theater Systems
Codec ID : 130
Duration : 1h 58mn
Bit rate mode : Constant
Bit rate : 1 510 Kbps
Channel(s) : 6 channels
Channel positions : Front: L C R, Side: L R, LFE
Sampling rate : 48.0 KHz
Bit depth : 24 bits
Compression mode : Lossy
Stream size : 1.25 GiB (6%)
Language : Portuguese

Text #1
ID : 4608 (0×1200)
Menu ID : 1 (0×1)
Format : PGS
Codec ID : 144
Language : English

Text #2
ID : 4609 (0×1201)
Menu ID : 1 (0×1)
Format : PGS
Codec ID : 144
Language : Spanish

Text #3
ID : 4610 (0×1202)
Menu ID : 1 (0×1)
Format : PGS
Codec ID : 144
Language : Portuguese

AUDIO

INGILIZCE(ENGLISH) 5.1 DTS HD MASTER DOLBY DIGITAL

ALTYAZILAR

INGILIZCE(ENGLISH)

ISPANYOLCA (SPANISH)

Turbobit Tek Link indir :

http://turbobit.net/xpltp1um08so/R.d.d.c.k.G.n.l.k.l.r.2.2013.1080p.BD.25.rar.html

Letitbit Tek Link indir :

http://u1706401.letitbit.net/download/43500.4d16158cdba712d5f6e8543a6704/R.d.d.c.k.G.n.l.k.l.r.2.2013.1080p.BD.25.rar.html

Hitfile Tek Link indir :

http://hitfile.net/U0Jp/R.d.d.c.k.G.n.l.k.l.r.2.2013.1080p.BD.25.rar.html

Vipfile Tek Link indir :

http://u18008281.vip-file.com/download/97737.9ea8b6717e4a4b1d9cc0c4afdb56/R.d.d.c.k.G.n.l.k.l.r.2.2013.1080p.BD.25.rar.html

Redbunker Tek Link indir :

http://www.redbunker.net/umfhjhyajdsz/R.d.d.c.k.G.n.l.k.l.r.2.2013.1080p.BD.25.rar.html

Şifresizdir, İyi Seyirler

**********************************************************************************************
**********************************************************************************************

Referans Linklerim:

Turbobit : http://turbobit.net/partner/?PHPSESUD=534BC41B49791B68A0A7C54D6793DDB8
Letitbit : http://lib.wm-panel.com/reg/b11bf5e362cc97fb7b49388bedbb0b0d
Uploaded : http://ul.to/ref/1448317
Redbunker : http://www.redbunker.net/free2351.html
Fastsonic : http://www.fastsonic.net/free241.html

Gelen aramalar: Riddick Gnlkleri,riddick gnlkleri 3,riddick günlükleri 2013 indir,tek link bd25 indir,riddick 3 indir,riddick 3 indir mp4
Etiketler: , , , , , , , , , , , , , , , , , , ,

Bir Cevap Yazın